<?xml version="1.0" standalone="no"?>
<!DOCTYPE svg PUBLIC "-//W3C//DTD SVG 1.1//EN" "http://www.w3.org/Graphics/SVG/1.1/DTD/svg11.dtd" >
<svg xmlns="http://www.w3.org/2000/svg">
<metadata>
Created by FontForge 20120731 at Mon Dec 12 20:25:57 2016
 By admin
</metadata>
<defs>
<font id="poifont" horiz-adv-x="1024" >
  <font-face 
    font-family="poifont"
    font-weight="500"
    font-stretch="normal"
    units-per-em="1024"
    panose-1="2 0 6 3 0 0 0 0 0 0"
    ascent="896"
    descent="-128"
    x-height="792"
    bbox="44 -90 973 832"
    underline-thickness="0"
    underline-position="0"
    unicode-range="U+0078-E612"
  />
<missing-glyph 
 />
    <glyph glyph-name=".notdef" 
 />
    <glyph glyph-name=".notdef" 
 />
    <glyph glyph-name=".null" horiz-adv-x="0" 
 />
    <glyph glyph-name="nonmarkingreturn" horiz-adv-x="341" 
 />
    <glyph glyph-name="x" unicode="x" horiz-adv-x="1001" 
d="M281 543q-27 -1 -53 -1h-83q-18 0 -36.5 -6t-32.5 -18.5t-23 -32t-9 -45.5v-76h912v41q0 16 -0.5 30t-0.5 18q0 13 -5 29t-17 29.5t-31.5 22.5t-49.5 9h-133v-97h-438v97zM955 310v-52q0 -23 0.5 -52t0.5 -58t-10.5 -47.5t-26 -30t-33 -16t-31.5 -4.5q-14 -1 -29.5 -0.5
t-29.5 0.5h-32l-45 128h-439l-44 -128h-29h-34q-20 0 -45 1q-25 0 -41 9.5t-25.5 23t-13.5 29.5t-4 30v167h911zM163 247q-12 0 -21 -8.5t-9 -21.5t9 -21.5t21 -8.5q13 0 22 8.5t9 21.5t-9 21.5t-22 8.5zM316 123q-8 -26 -14 -48q-5 -19 -10.5 -37t-7.5 -25t-3 -15t1 -14.5
t9.5 -10.5t21.5 -4h37h67h81h80h64h36q23 0 34 12t2 38q-5 13 -9.5 30.5t-9.5 34.5q-5 19 -11 39h-368zM336 498v228q0 11 2.5 23t10 21.5t20.5 15.5t34 6h188q31 0 51.5 -14.5t20.5 -52.5v-227h-327z" />
    <glyph glyph-name="sousuochaxun" unicode="&#xe600;" 
d="M952 -17l-238 209q50 52 78 119.5t28 142.5q0 102 -50.5 189t-138 137.5t-190 50.5t-189.5 -50.5t-137.5 -137.5t-50.5 -189.5t50.5 -189.5t137.5 -137.5t190 -50.5q128 0 231 79l239 -211q8 -8 19.5 -8t20 8t8.5 19.5t-8 19.5zM120 453.5q0 87.5 43 161.5t117.5 117
t161.5 43t161.5 -43t117.5 -117t43 -161.5t-43 -161.5t-117.5 -117t-161.5 -43t-161.5 43t-117.5 117t-43 161.5z" />
    <glyph glyph-name="shuaxin" unicode="&#xe612;" 
d="M872 -6h-144q102 60 165 162.5t63 222.5q0 121 -58.5 224.5t-161 164t-225.5 60.5q-12 0 -20 -8t-8 -19.5t8 -19.5t20 -8q109 -1 198.5 -54t140 -143t50.5 -197q0 -120 -70.5 -219t-179.5 -143v199q0 12 -8 20t-19.5 8t-20 -8t-8.5 -20v-278h278q12 0 20 8.5t8 20
t-8 19.5t-20 8zM511 -6q-109 0 -198.5 53.5t-140 143.5t-50.5 196q0 121 70.5 220t179.5 143v-200q0 -11 8 -19.5t19.5 -8.5t20 8.5t8.5 19.5v278h-279q-11 0 -19 -8t-8 -19.5t8 -19.5t19 -8h139q-99 -61 -160.5 -164t-61.5 -222q0 -121 58.5 -224t161 -164t225.5 -61
q11 0 19.5 8.5t8.5 20t-8.5 19.5t-19.5 8z" />
    <glyph glyph-name="guanlianfujian" unicode="&#xe601;" 
d="M916 713l-75 75q-43 43 -104.5 43.5t-102.5 -40.5l-20 -20l-61 -61q-9 -8 -9 -20t8.5 -20.5t20.5 -8.5t21 8l61 61l19 20q25 25 63 24t63 -27l75 -74q26 -26 26.5 -64t-23.5 -62l-183 -183l-72 -72q-26 -26 -68 -28t-66 22l-35 34q0 1 -1 2t-1 2l-1 -1l-20 21
q-9 8 -20.5 8t-20 -8.5t-8.5 -20t8 -20.5l24 -23l34 -35l3 -3q1 -1 6 -3q40 -34 97 -32.5t100 36.5l1 -1q1 1 2.5 3.5t2.5 2.5l2 2l2 2l254 254q42 42 41 103.5t-43 103.5zM431 100l-61 -61l-21 -21q-25 -25 -60.5 -25t-61.5 25l-81 82q-25 25 -25 61t25 61l265 264
q25 25 60.5 25t61.5 -25l40 -40l21 -21q8 -8 20 -8t20.5 8.5t8.5 20t-9 20.5l-20 20l-41 41q-42 42 -101.5 42t-101.5 -42l-265 -265q-42 -42 -42 -101.5t42 -101.5l82 -81q42 -42 101.5 -42t101.5 42l21 20l61 61q8 8 8 20t-8.5 20.5t-20.5 8.5t-20 -8z" />
    <glyph glyph-name="chuangkoufangda" unicode="&#xe610;" 
d="M341 327h-168q-46 0 -79 -33t-33 -79v-168q0 -46 33 -79t79 -33h168q47 0 79.5 33t32.5 79v168q0 46 -32.5 79t-79.5 33zM397 47q0 -23 -16 -39.5t-40 -16.5h-168q-23 0 -39.5 16.5t-16.5 39.5v168q0 23 16.5 39.5t39.5 16.5h168q24 0 40 -16.5t16 -39.5v-168zM529 363
l232 232v-184q0 -12 8.5 -20t20 -8t19.5 8t8 20v252q0 11 -8 19.5t-20 8.5h-252q-11 0 -19.5 -8.5t-8.5 -20t8.5 -19.5t19.5 -8h185l-232 -232q-9 -9 -9 -20.5t8.5 -19.5t20 -8t19.5 8zM845 831h-672q-46 0 -79 -33t-33 -79v-308q0 -12 8.5 -20t20 -8t19.5 8t8 20v308
q0 23 16.5 39.5t39.5 16.5h672q24 0 40 -16.5t16 -39.5v-672q0 -23 -16 -39.5t-40 -16.5h-308q-11 0 -19.5 -8.5t-8.5 -20t8.5 -19.5t19.5 -8h308q47 0 79.5 33t32.5 79v672q0 46 -32.5 79t-79.5 33z" />
    <glyph glyph-name="tupian" unicode="&#xe602;" 
d="M848 832h-672q-47 0 -79.5 -33t-32.5 -79v-672q0 -46 32.5 -79t79.5 -33h672q46 0 79 33t33 79v672q0 46 -33 79t-79 33zM904 48q0 -23 -16.5 -39.5t-39.5 -16.5h-672q-23 0 -39.5 16.5t-16.5 39.5v672q0 23 16.5 39.5t39.5 16.5h672q23 0 39.5 -16.5t16.5 -39.5v-672z
M835 351l-84 56q-17 11 -33 -1v0l-133 -107l-197 136h-1q-2 2 -7 3q-1 1 -1.5 1h-1.5q-2 1 -7 1q0 -1 -1.5 -0.5l-1.5 0.5q-1 -1 -2.5 -1.5l-1.5 -0.5q-5 -1 -7 -3v0l-168 -112q-9 -6 -11.5 -17.5t3.5 -21.5q9 -12 24 -12q8 0 15 5l152 101l433 -297q7 -5 16 -5q14 0 23 12
q6 10 4 21.5t-11 17.5l-203 139l104 83l67 -44q7 -5 16 -5q15 0 23 12q6 10 4 21.5t-12 17.5zM582 468q52 0 89 37t37 89t-37 89t-89 37t-89 -37t-37 -89t37 -89t89 -37zM582 664q29 0 49.5 -20.5t20.5 -49.5t-20.5 -49.5t-49.5 -20.5t-49.5 20.5t-20.5 49.5t20.5 49.5
t49.5 20.5z" />
    <glyph glyph-name="shipin" unicode="&#xe603;" 
d="M893 -90h-762q-33 0 -56.5 23.5t-23.5 56.5v762q0 33 23.5 56.5t56.5 23.5h762q33 0 56.5 -23.5t23.5 -56.5v-762q0 -33 -23.5 -56.5t-56.5 -23.5zM171 792h-40q-16 0 -28 -12t-12 -28v-120h80v160zM171 591h-80v-200h80v200zM171 351h-80v-201h80v201zM171 110h-80v-120
q0 -16 12 -28t28 -12h40v160zM813 351v441h-602v-842h602v160v241zM933 752q0 16 -12 28t-28 12h-40v-160h80v120zM933 591h-80v-200h80v200zM933 351h-80v-201h80v201zM933 110h-80v-160h40q16 0 28 12t12 28v120zM386 197q-6 -6 -14 -6t-14 5.5t-6 14.5v0v320v0q0 9 6 15
t14 6t14 -6l281 -160q6 -6 6 -14t-6 -14zM394 494v-5h-2v-244l219 126z" />
    <glyph glyph-name="huhuan" unicode="&#xe604;" 
d="M136 434v173h677l-81 -82q-10 -9 -10 -23t9.5 -23.5t23.5 -9.5t24 9l132 133q18 10 18 30v4q-1 9 -6 16v0l-1 1q-1 2 -3 3.5t-4 3.5l-138 138q-10 11 -24.5 11t-24.5 -10.5t-10 -24.5t10 -24l83 -84h-710q-14 0 -24 -10t-10 -24v-207q0 -14 10 -24t24.5 -10t24.5 10
t10 24zM928.5 365q-14.5 0 -24.5 -10t-10 -24v-173h-673l77 80q10 10 10 24t-9.5 24t-23.5 10t-23 -10l-127 -130q-10 -3 -17 -12t-7 -21q0 -23 22 -32l127 -130q9 -9 22 -9t22.5 9.5t9.5 23t-9 22.5l-79 82h713q14 0 24 10t10 24v208q0 14 -10 24t-24.5 10z" />
    <glyph glyph-name="shengyin" unicode="&#xe605;" 
d="M840 728q-8 8 -19.5 8.5t-20 -7.5t-9 -20t7.5 -20q53 -56 82 -133.5t29 -164t-29 -164.5t-82 -134q-8 -8 -7.5 -20t8.5 -20q8 -7 20 -7t20 8q61 64 94 152t33 185t-33 185.5t-94 151.5zM745 642q-8 8 -20 7.5t-20 -8.5t-8 -20t9 -20q39 -38 60.5 -93t21.5 -117
t-21.5 -117t-60.5 -93q-9 -8 -9 -19.5t8 -20t20 -8.5t20 8q47 46 73 111.5t26 138.5t-26 139t-73 112zM649 556q-9 7 -21 6t-19.5 -10.5t-6 -21t10.5 -18.5q24 -20 38 -52t14 -69q0 -36 -13.5 -68t-37.5 -52q-9 -7 -10 -18.5t7 -20.5q8 -10 21 -10q11 0 18 6q34 28 53 71
t19 92q0 50 -19.5 93.5t-53.5 71.5zM472.5 755.5q-15.5 7.5 -29.5 -2.5l-233 -173h-121q-11 0 -19.5 -8.5t-8.5 -20.5v-320q0 -12 8.5 -20t19.5 -8h121l233 -174q7 -5 17 -5q6 0 12 3q16 8 16 25v678q0 18 -15.5 25.5zM431 108l-194 146q-8 5 -17 5h-102v264h102q9 0 17 6
l194 145v-566z" />
    <glyph glyph-name="jingyin" unicode="&#xe606;" 
d="M826 400l126 127q8 8 8 19.5t-8 19.5t-19.5 8t-19.5 -8l-127 -126l-126 126q-8 8 -19.5 8t-20 -8t-8.5 -19.5t8 -19.5l127 -127l-127 -126q-8 -8 -8 -20t8.5 -20t20 -8t19.5 8l126 127l127 -127q8 -8 19.5 -8t19.5 8t8 20t-8 20zM473.5 741q-15.5 8 -28.5 -3l-228 -170
h-119q-12 0 -20 -8.5t-8 -19.5v-316q0 -11 8 -19.5t20 -8.5h119l228 -170q7 -6 16 -6q7 0 13 3q15 8 15 25v668q0 17 -15.5 25zM434 103l-192 143q-7 6 -16 6h-101v260h101q9 0 16 5l192 143v-557z" />
    <glyph glyph-name="fanhui2" unicode="&#xe607;" 
d="M761 755l-419 -383l419 -383q11 -11 11 -26.5t-11 -26.5t-26.5 -11t-26.5 11l-446 408q-11 11 -10 28q-1 17 10 28l446 408q11 11 26.5 11t26.5 -11t11 -26.5t-11 -26.5z" />
    <glyph glyph-name="jinru2" unicode="&#xe608;" 
d="M763 344l-448 -409q-11 -11 -27 -11t-27 11t-11 26.5t11 26.5l422 384l-422 384q-11 11 -11 26.5t11 26.5t27 11t27 -11l448 -409q12 -11 11 -28q1 -17 -11 -28z" />
    <glyph glyph-name="daohangliebiao" unicode="&#xe609;" 
d="M931 352h-580q-13 0 -22.5 9.5t-9.5 22.5t9.5 22.5t22.5 9.5h580q13 0 22.5 -9.5t9.5 -22.5t-9.5 -22.5t-22.5 -9.5zM931 610h-580q-13 0 -22.5 9t-9.5 22.5t9.5 23t22.5 9.5h580q13 0 22.5 -9.5t9.5 -23t-9.5 -22.5t-22.5 -9zM125.5 62q-26.5 0 -45.5 18.5t-19 45.5
t19 46t45.5 19t45.5 -19t19 -46t-19 -45.5t-45.5 -18.5zM125.5 320q-26.5 0 -45.5 18.5t-19 45.5t19 45.5t45.5 18.5t45.5 -18.5t19 -45.5t-19 -45.5t-45.5 -18.5zM125.5 577q-26.5 0 -45.5 19t-19 46t19 45.5t45.5 18.5t45.5 -18.5t19 -45.5t-19 -46t-45.5 -19zM351 158
h580q13 0 22.5 -9t9.5 -22.5t-9.5 -23t-22.5 -9.5h-580q-13 0 -22.5 9.5t-9.5 23t9.5 22.5t22.5 9z" />
    <glyph glyph-name="shouqi" unicode="&#xe60a;" 
d="M948 123q-11 -11 -26.5 -11t-26.5 11l-383 419l-383 -419q-11 -11 -26.5 -11t-26.5 11t-11 26.5t11 26.5l408 446q11 11 28 10q17 1 28 -10l408 -446q11 -11 11 -26.5t-11 -26.5z" />
    <glyph glyph-name="zhankai" unicode="&#xe60b;" 
d="M76 621q11 11 26.5 11t26.5 -11l383 -419l383 419q11 11 26.5 11t26.5 -11t11 -26.5t-11 -26.5l-408 -446q-11 -11 -28 -10q-17 -1 -28 10l-408 446q-11 11 -11 26.5t11 26.5v0z" />
    <glyph glyph-name="bofang" unicode="&#xe60c;" 
d="M839 338l-598 -384q-25 -16 -51 -9.5t-26 29.5v820q0 26 25 30.5t52 -11.5l598 -384q19 -19 19 -45.5t-19 -45.5zM227 31l568 353l-568 353v-706z" />
    <glyph glyph-name="zanting" unicode="&#xe60d;" 
d="M754 -40h-121q-25 0 -42.5 17.5t-17.5 42.5v728q0 25 17.5 42.5t42.5 17.5h121q25 0 43 -17.5t18 -42.5v-728q0 -25 -18 -42.5t-43 -17.5zM754 717q0 13 -8.5 22t-21.5 9h-61q-12 0 -21 -9t-9 -22v-666q0 -13 9 -22t21 -9h61q13 0 21.5 9t8.5 22v666zM391 -40h-121
q-25 0 -43 17.5t-18 42.5v728q0 25 18 42.5t43 17.5h121q25 0 42.5 -17.5t17.5 -42.5v-728q0 -25 -17.5 -42.5t-42.5 -17.5zM391 717q0 13 -9 22t-21 9h-61q-13 0 -21.5 -9t-8.5 -22v-666q0 -13 8.5 -22t21.5 -9h61q12 0 21 9t9 22v666z" />
    <glyph glyph-name="tingzhi" unicode="&#xe611;" 
d="M889 -56h-754q-26 0 -44.5 18.5t-18.5 44.5v754q0 26 18.5 44.5t44.5 18.5h754q26 0 44.5 -18.5t18.5 -44.5v-754q0 -26 -18.5 -44.5t-44.5 -18.5zM889 730q0 13 -9 22t-22 9h-692q-13 0 -22 -9t-9 -22v-692q0 -13 9 -22t22 -9h692q13 0 22 9t9 22v692z" />
    <glyph glyph-name="shangyishou" unicode="&#xe60e;" 
d="M76 424l480 344q18 10 32.5 11.5t25.5 -12t11 -43.5v-150l271 194q17 10 32 10.5t26 -13t10 -43.5v-677q0 -27 -11.5 -42t-26.5 -14t-30 9l-271 195v-148q0 -27 -11.5 -41.5t-26.5 -14t-31 8.5l-480 345q-16 16 -16 40t16 41zM908 700l-340 -238v238l-452 -317l452 -316
v237l340 -237v633z" />
    <glyph glyph-name="kuaijin" unicode="&#xe60f;" 
d="M948 343l-480 -345q-16 -8 -31 -8.5t-26.5 14t-11.5 41.5v148l-271 -195q-15 -8 -30 -9t-26.5 14t-11.5 42v677q-1 30 10 43.5t26 13t32 -10.5l271 -194v150q0 30 11 43.5t25.5 12t32.5 -11.5l480 -344q16 -17 16 -41t-16 -40zM116 67l340 237v-237l452 316l-452 317
v-238l-340 238v-633z" />
  </font>
</defs>
</svg>
